<?xml version="1.0" standalone="no"?>
<!DOCTYPE svg PUBLIC "-//W3C//DTD SVG 1.1//EN" "http://www.w3.org/Graphics/SVG/1.1/DTD/svg11.dtd" >
<svg>
<metadata>
Created by FontForge 20120731 at Wed Aug 21 17:50:11 2019
 By www
Copyright (c) 2012 by 205 Corp. All rights reserved.
</metadata>
<defs>
<font id="Maax-Bold" horiz-adv-x="1435" >
  <font-face 
    font-family="Maax"
    font-weight="700"
    font-stretch="normal"
    units-per-em="2048"
    panose-1="2 0 5 3 0 0 0 2 0 3"
    ascent="1589"
    descent="-459"
    x-height="1004"
    cap-height="1436"
    bbox="-80 -420 2087 1821"
    underline-thickness="151"
    underline-position="-115"
    unicode-range="U+0020-FB02"
  />
<missing-glyph horiz-adv-x="748" 
d="M68 0v1365h544v-1365h-544zM136 68h408v1229h-408v-1229z" />
    <glyph glyph-name=".notdef" horiz-adv-x="748" 
d="M68 0v1365h544v-1365h-544zM136 68h408v1229h-408v-1229z" />
    <glyph glyph-name="glyph1" horiz-adv-x="0" 
 />
    <glyph glyph-name="glyph2" horiz-adv-x="682" 
 />
    <glyph glyph-name="space" unicode=" " horiz-adv-x="571" 
 />
    <glyph glyph-name="exclam" unicode="!" horiz-adv-x="679" 
d="M164 160q0 74 50.5 125t123.5 51t125.5 -52t52.5 -124q0 -73 -52 -124.5t-126 -51.5q-73 0 -123.5 51t-50.5 125zM188 463v973h301v-973h-301z" />
    <glyph glyph-name="quotedbl" unicode="&#x22;" horiz-adv-x="980" 
d="M117 864v572h291v-572h-291zM571 864v572h291v-572h-291z" />
    <glyph glyph-name="numbersign" unicode="#" horiz-adv-x="1785" 
d="M129 322v274h293l74 248h-260v270h333l95 322h288l-92 -322h291l90 322h293l-94 -322h217v-270h-291l-72 -248h256v-274h-331l-91 -322h-292l94 322h-293l-92 -322h-291l94 322h-219zM713 596h291l73 248h-293z" />
    <glyph glyph-name="dollar" unicode="$" horiz-adv-x="1366" 
d="M92 252l209 211q107 -143 270 -189v320q-211 37 -327.5 146.5t-116.5 283.5q0 176 127 291q128 116 317 137v217h228v-223q247 -47 411 -217l-204 -215q-94 97 -207 137v-291q461 -83 461 -444q0 -174 -124 -290.5t-337 -141.5v-217h-228v219q-147 20 -271.5 91
t-207.5 175zM430 1038q0 -96 141 -137v273q-66 -14 -103.5 -49.5t-37.5 -86.5zM799 264q73 13 115 53.5t42 94.5q0 100 -157 141v-289z" />
    <glyph glyph-name="percent" unicode="%" horiz-adv-x="1722" 
d="M104 1149q0 128 91 219q90 90 221 90q127 0 217 -90t90 -219t-90 -219t-217 -90q-131 0 -221 90q-91 91 -91 219zM264 0l883 1436h311l-880 -1436h-314zM328 1149q0 -41 25.5 -66.5t62.5 -25.5q33 0 58.5 27t25.5 65q0 40 -25 66t-59 26q-37 0 -62.5 -25.5t-25.5 -66.5z
M999 285q0 130 91 221q90 90 221 90q127 0 217 -90t90 -221q0 -129 -90 -219q-89 -89 -217 -89q-132 0 -221 89q-91 91 -91 219zM1221 285q0 -40 26 -65t64 -25q33 0 58.5 26.5t25.5 63.5q0 41 -25 67.5t-59 26.5q-38 0 -64 -26t-26 -68z" />
    <glyph glyph-name="ampersand" unicode="&#x26;" 
d="M94 408q0 135 68.5 242t191.5 169l15 8q-117 150 -117 293q0 148 110 242q113 96 289 96q170 0 279 -100q110 -101 110 -244q0 -108 -52.5 -187t-172.5 -159l-29 -20l170 -209q47 96 74 209h305q-54 -273 -194 -459l225 -289h-350l-76 88q-153 -111 -360 -111
q-236 0 -363 127q-123 126 -123 304zM389 422q0 -73 56 -123.5t141 -50.5q101 0 178 59l-229 303l-11 -6q-135 -70 -135 -182zM555 1094q0 -56 57 -125l11 -13l22 13q100 54 100 131q0 37 -27 61.5t-71 24.5q-38 0 -65 -27t-27 -65z" />
    <glyph glyph-name="quotesingle" unicode="'" horiz-adv-x="524" 
d="M117 864v572h291v-572h-291z" />
    <glyph glyph-name="parenleft" unicode="(" horiz-adv-x="798" 
d="M117 532q0 284 116 529.5t318 423.5l188 -180q-331 -316 -331 -773q0 -456 331 -772l-188 -180q-192 168 -313 416q-121 245 -121 536z" />
    <glyph glyph-name="parenright" unicode=")" horiz-adv-x="798" 
d="M35 -240q332 317 332 772q0 456 -332 773l188 180q194 -170 314 -416q120 -243 120 -537q0 -284 -116 -529t-318 -423z" />
    <glyph glyph-name="asterisk" unicode="*" horiz-adv-x="985" 
d="M94 1200l56 219l229 -61l-8 229h241l-8 -229l230 61l57 -219l-221 -53l149 -180l-190 -148l-135 195l-134 -195l-192 152l147 176z" />
    <glyph glyph-name="plus" unicode="+" horiz-adv-x="1306" 
d="M152 369v270h364v365h270v-365h369v-270h-369v-369h-270v369h-364z" />
    <glyph glyph-name="comma" unicode="," horiz-adv-x="634" 
d="M12 -283l199 529h319l-247 -529h-271z" />
    <glyph glyph-name="hyphen" unicode="-" horiz-adv-x="1028" 
d="M129 406v262h770v-262h-770z" />
    <glyph glyph-name="period" unicode="." horiz-adv-x="679" 
d="M164 156q0 74 49 125q51 51 125 51t125 -51q54 -51 54 -125t-54 -125q-51 -51 -125 -51t-125 51q-49 51 -49 125z" />
    <glyph glyph-name="slash" unicode="/" horiz-adv-x="1124" 
d="M162 0l604 1436h301l-600 -1436h-305z" />
    <glyph glyph-name="zero" unicode="0" horiz-adv-x="1327" 
d="M94 719q0 329 152 534q150 205 418 205q267 0 417 -205q152 -208 152 -534q0 -329 -152 -537q-150 -205 -417 -205q-268 0 -418 205q-152 208 -152 537zM397 719q0 -213 68 -340q71 -123 199 -123t196 123q70 125 70 340q0 216 -70 338q-67 123 -196 123
q-128 0 -199 -123q-68 -124 -68 -338z" />
    <glyph glyph-name="one" unicode="1" horiz-adv-x="1167" 
d="M117 0v281h350v776q-137 -90 -350 -90v272q131 6 232.5 55.5t146.5 141.5h274v-1155h338v-281h-991z" />
    <glyph glyph-name="two" unicode="2" horiz-adv-x="1265" 
d="M104 0v47q0 263 105 432q105 172 364 303l80 39q101 51 139.5 99.5t38.5 107.5q0 67 -53.5 109.5t-144.5 42.5q-218 0 -332 -230l-197 197q63 135 205 223q140 88 309 88q218 0 365 -112q154 -115 154 -314q0 -153 -83.5 -258.5t-258.5 -195.5l-125 -64
q-104 -53 -154 -104.5t-63 -128.5h677v-281h-1026z" />
    <glyph glyph-name="three" unicode="3" horiz-adv-x="1214" 
d="M47 207l205 207q128 -158 317 -158q102 0 164 43.5t62 120.5q0 168 -273 168h-119v282h97q258 0 258 162q0 64 -52 106t-137 42q-175 0 -288 -140l-199 199q195 219 479 219q213 0 354 -100q148 -103 148 -297q0 -202 -160 -311q86 -43 140.5 -132t54.5 -206
q0 -205 -154 -320t-387 -115q-150 0 -287 63t-223 167z" />
    <glyph glyph-name="four" unicode="4" horiz-adv-x="1286" 
d="M57 303v250l615 883h334v-865h198v-268h-198v-303h-304v303h-645zM373 571h329v482z" />
    <glyph glyph-name="five" unicode="5" horiz-adv-x="1271" 
d="M104 205l218 215q123 -164 301 -164q104 0 172.5 59t68.5 152q0 97 -66 160t-169 63q-159 0 -217 -137h-281l35 883h887v-281h-602l-13 -264q100 65 240 65q201 0 344 -131q145 -130 145 -342q0 -228 -159 -366q-158 -140 -408 -140q-154 0 -287 62t-209 166z" />
    <glyph glyph-name="six" unicode="6" horiz-adv-x="1306" 
d="M104 731q0 329 164 529q165 198 449 198q129 0 248.5 -53t195.5 -141l-196 -203q-98 119 -260 119q-132 0 -220 -101q-89 -100 -92 -258q113 131 312 131q206 0 350 -135q147 -135 147 -350q0 -221 -153 -356q-152 -134 -367 -134q-267 0 -424 201q-154 204 -154 553z
M469 469q0 -92 61.5 -152.5t153.5 -60.5t153.5 60.5t61.5 152.5q0 93 -61 153t-154 60t-154 -60t-61 -153z" />
    <glyph glyph-name="seven" unicode="7" horiz-adv-x="1177" 
d="M70 938v498h1048v-265q-428 -446 -483 -1089l-6 -82h-310l9 80q52 626 422 1075h-385v-217h-295z" />
    <glyph glyph-name="eight" unicode="8" horiz-adv-x="1273" 
d="M117 412q0 109 49.5 195t130.5 132q-145 121 -145 285q0 194 137 313q139 121 348 121q207 0 346 -121t139 -313q0 -166 -143 -285q79 -47 128.5 -133t49.5 -194q0 -198 -147 -318q-144 -117 -373 -117q-228 0 -375 117q-145 121 -145 318zM420 428q0 -79 59.5 -125.5
t157.5 -46.5q99 0 158 46.5t59 125.5t-59.5 126.5t-157.5 47.5q-97 0 -157 -47.5t-60 -126.5zM455 1024q0 -70 53 -113t129 -43q77 0 129.5 43t52.5 113t-52.5 113t-129.5 43q-76 0 -129 -43t-53 -113z" />
    <glyph glyph-name="nine" unicode="9" horiz-adv-x="1296" 
d="M94 969q0 220 152 354q153 135 368 135q269 0 422 -203q154 -201 154 -550q0 -330 -166 -529q-163 -199 -444 -199q-128 0 -248.5 53.5t-196.5 141.5l197 205q95 -121 258 -121q131 0 219 98q91 101 94 260q-113 -131 -313 -131q-203 0 -350 135q-146 137 -146 351z
M397 967q0 -94 60.5 -153.5t154.5 -59.5q93 0 154 60t61 153t-61 153t-154 60q-94 0 -154.5 -59.5t-60.5 -153.5z" />
    <glyph glyph-name="colon" unicode=":" horiz-adv-x="679" 
d="M164 156q0 74 49 125q51 51 125 51t125 -51q54 -51 54 -125t-54 -125q-51 -51 -125 -51t-125 51q-49 51 -49 125zM164 842q0 74 49 125q51 51 125 51t125 -51q54 -51 54 -125t-54 -125q-51 -51 -125 -51t-125 51q-49 51 -49 125z" />
    <glyph glyph-name="semicolon" unicode=";" horiz-adv-x="684" 
d="M20 -283l199 529h320l-248 -529h-271zM191 850q0 74 51 125q51 54 125 54t125 -54q54 -51 54 -125t-54 -125q-51 -51 -125 -51t-125 51t-51 125z" />
    <glyph glyph-name="less" unicode="&#x3c;" horiz-adv-x="1286" 
d="M104 350v303l1031 375v-307l-656 -219l656 -219v-306z" />
    <glyph glyph-name="equal" unicode="=" horiz-adv-x="1331" 
d="M152 182v262h1028v-262h-1028zM152 631v260h1028v-260h-1028z" />
    <glyph glyph-name="greater" unicode="&#x3e;" horiz-adv-x="1286" 
d="M129 -23v306l655 219l-655 219v307l1030 -375v-303z" />
    <glyph glyph-name="question" unicode="?" horiz-adv-x="1130" 
d="M35 1217q75 113 202 177t279 64q208 0 352 -123q146 -125 146 -317q0 -161 -105 -281q-101 -116 -272 -151v-123h-299v368h96q120 0 198.5 54t78.5 139q0 68 -54 111t-139 43q-183 0 -291 -166zM315 160q0 72 51 124t123 52q73 0 126 -52t53 -124q0 -73 -52.5 -124.5
t-126.5 -51.5q-72 0 -123 51.5t-51 124.5z" />
    <glyph glyph-name="at" unicode="@" horiz-adv-x="2181" 
d="M104 506q0 437 287 694q285 258 723 258q439 0 707 -244q266 -242 266 -649q0 -252 -137 -420q-134 -168 -338 -168q-167 0 -244 121q-133 -121 -315 -121q-218 0 -361 146q-141 144 -141 379q0 228 137 377t352 149q158 0 258 -92v68h281v-658q0 -71 18.5 -103t67.5 -32
q69 0 125 96q55 98 55 234q0 313 -190 503q-187 193 -541 193q-332 0 -549 -199q-219 -198 -219 -532q0 -328 221 -516q222 -189 582 -189q187 0 395 54v-217q-186 -58 -407 -58q-464 0 -750 250q-283 250 -283 676zM848 498q0 -110 57 -185q59 -77 164 -77q103 0 162 77
t59 185q0 105 -59 182q-58 76 -162 76q-106 0 -164 -76q-57 -75 -57 -182z" />
    <glyph glyph-name="A" unicode="A" horiz-adv-x="1458" 
d="M23 0l561 1436h290l562 -1436h-316l-114 283h-555l-113 -283h-315zM551 553h356l-178 469z" />
    <glyph glyph-name="B" unicode="B" horiz-adv-x="1406" 
d="M139 0v1436h645q229 0 362.5 -104.5t133.5 -293.5q0 -176 -147 -290q182 -129 182 -328q0 -189 -137 -305q-136 -115 -359 -115h-680zM444 281h306q131 0 194.5 38.5t63.5 126.5q0 158 -250 158h-314v-323zM444 860h291q238 0 238 148q0 81 -57.5 114t-192.5 33h-279
v-295z" />
    <glyph glyph-name="C" unicode="C" horiz-adv-x="1497" 
d="M82 715q0 335 215 538q214 205 537 205q354 0 571 -270l-205 -209q-64 92 -164 143.5t-217 51.5q-168 0 -297 -123q-127 -121 -127 -330q0 -212 127 -336q126 -123 314 -123q241 0 389 201l202 -215q-221 -271 -583 -271q-329 0 -547 203q-215 203 -215 535z" />
    <glyph glyph-name="D" unicode="D" horiz-adv-x="1495" 
d="M139 0v1436h473q310 0 543 -158q121 -81 189.5 -224</font>
</defs>
</svg>
